<?xml version="1.0" standalone="no"?>
<!DOCTYPE svg PUBLIC "-//W3C//DTD SVG 1.1//EN" "http://www.w3.org/Graphics/SVG/1.1/DTD/svg11.dtd" >
<svg xmlns="http://www.w3.org/2000/svg">
<metadata></metadata>
<defs>
<font id="doo_fontsregular" horiz-adv-x="2048" >
<font-face units-per-em="2048" ascent="1536" descent="-512" />
<missing-glyph horiz-adv-x="500" />
<glyph />
<glyph />
<glyph unicode="&#xd;" />
<glyph unicode="P" horiz-adv-x="2330" d="M137 25q2 98 2 193v194q29 0 55.5 1t55.5 -1q20 0 20 20q-2 23 -1 44.5t-1 43.5q0 16 5.5 23.5t21.5 5.5q20 -2 39.5 0t40.5 0q18 -2 24.5 4t6.5 25v917h1497v-762v-162q0 -25 22 -22q23 0 46.5 -1t45.5 1q23 0 23 -23q-2 -23 -1 -46t-1 -46q0 -23 22 -22q23 2 47.5 1 t46.5 1q16 0 21.5 -5.5t5.5 -21.5q-1 -65 -1 -130v-65q1 -96 1 -194h-2017q-16 0 -21.5 5t-5.5 22zM541 440q0 -16 5 -22t23 -6q98 1 195 1h97q145 -1 292 -1t293 1h97q98 0 196 -1q18 0 23 6t5 22q-1 224 -1 449t1 450q0 16 -5 21.5t-21 5.5h-1174q-16 0 -21 -5t-5 -22 v-899zM678 578q2 20 1 39.5t-1 39.5q-2 29 27 29q158 -2 314.5 -2h313.5h137.5t135.5 2q24 0 24 -22v-5q-2 -20 -2 -40.5t2 -40.5v-7q0 -11 -4 -17q-5 -6 -17 -5h-7h-451h-444h-7q-12 0 -17 5t-5 17v7zM678 852q2 20 1 40.5t-1 41.5q-2 25 22 22h224h338t337 2q21 0 27 -7 q5 -5 4 -17v-8q-2 -20 -2 -40l2 -44q0 -23 -24 -21h-430h-23h-223.5t-222.5 -2q-19 -1 -25 7q-4 6 -5 17q0 4 1 9zM678 1120v86q-2 23 19 23h3h172h730q18 0 24 -6q4 -4 4 -15v-8q-2 -20 -2 -40l2 -44q0 -24 -24 -24h-2q-113 2 -225.5 2h-225.5h-224.5t-223.5 -2 q-29 0 -27 28z" />
<glyph unicode="Q" horiz-adv-x="2105" d="M102 479v463q0 41 20.5 68.5t55.5 38.5q16 4 29 4h221h14v12v283q0 45 45 45h82q39 0 39 -41v-287q0 -10 2 -11t13 -1h856q10 0 12 2t2 12v283q0 43 41 43h82q43 0 43 -43v-285q0 -10 1 -11t11 -1q55 0 111 -1h37q37 0 75 1q43 0 74 -32t31 -73q0 -119 -1 -236v-79 q0 -78 1 -156q0 -37 -25.5 -71.5t-79.5 -36.5h-378q-3 0 -7 2v12v373q0 57 -37.5 101t-95.5 52q-6 2 -13 2h-13h-600q-66 0 -113 -46t-47 -113v-369v-14h-10h-369q-41 0 -69.5 23.5t-37.5 62.5q-2 8 -2 24zM662 55v4v691q0 33 26 51q16 8 31 8h663q25 0 40.5 -16.5 t15.5 -40.5v-293v-56v-346q0 -45 -39 -55q-6 -2 -17 -2h-663q-25 0 -40 15.5t-17 39.5zM662 1176v270q0 43 43 55l4 2h682q4 -2 6 -2t6 -2q35 -14 35 -51q1 -47 1 -92v-45.5v-45.5q0 -45 1 -91q0 -10 -10 -7h-13h-737h-10q-8 -2 -8 9zM791 172q-2 -8 8 -12q4 0 6 -1t4 -1 h534q8 0 11 2q10 10 8 12q0 6 -10 12q-2 2 -5.5 1t-7.5 -1h-262h-264h-12q-10 0 -10 -12zM791 340q0 -4 3 -5t7 -5h8h268h266h9q14 0 10 10q0 4 -2 7t-4 7q-4 2 -6 1t-7 -1q-135 2 -267 2h-265q-10 0 -12 -2q-8 -8 -8 -14zM791 512q0 -8 10 -12h8h266h268h9q10 10 10 12 q4 10 -8 14h-11h-534h-8q-12 -4 -10 -14zM791 686q-1 -2 -1 -5q0 -6 9 -9q4 -2 12 -2h530q10 0 13 2q8 8 8 14q2 6 -10 10h-9h-266h-268h-8q-4 -4 -6 -5t-4 -5zM1716 721q0 -31 21.5 -53.5t52.5 -22.5q29 0 52.5 22.5t23.5 53.5q0 29 -22.5 51.5t-53.5 22.5t-52.5 -21.5 t-21.5 -52.5zM1716 901q-1 -6 -1 -11q0 -28 17 -46q21 -23 54 -25q31 -4 53.5 17.5t26.5 52.5v6q0 29 -20 49q-21 21 -52 23q-5 1 -9 1q-24 0 -43 -18q-24 -20 -26 -49zM1753 721q0 16 10.5 26.5t26.5 10.5t26.5 -10.5t10.5 -26.5t-10.5 -26.5t-26.5 -10.5t-26.5 10.5 t-10.5 26.5zM1753 893q0 16 10.5 26.5t26.5 10.5t26.5 -10.5t10.5 -26.5t-10.5 -26.5t-26.5 -10.5t-26.5 10.5t-10.5 26.5z" />
<glyph unicode="R" horiz-adv-x="1650" d="M106 874q2 35 8.5 66t22.5 59q29 49 74 65q19 7 40 8q28 0 58 -13q66 -27 113 -92q46 -67 66 -141q9 -35 10 -73q0 -40 -11 -83q-10 -45 -36.5 -77t-73.5 -42q-16 -4 -30 -4q-19 0 -35 6q-30 10 -58 29q-55 41 -87 94t-48 119q-4 20 -6.5 39.5t-6.5 39.5zM338 184 q10 59 32.5 111.5t51.5 103.5q51 86 112.5 160t145.5 131q37 28 79 44q27 11 56 10q16 0 33 -3q35 -4 62.5 -18t54.5 -33q63 -45 112 -101.5t90 -121.5q35 -57 64 -116.5t41 -127.5q2 -10 2 -20.5t2 -20.5v-5q0 -54 -41 -95q-49 -46 -107 -62q-21 -6 -42 -6q-38 0 -80 17 q-20 8 -40 15t-40 17q-36 15 -75 15q-25 0 -52 -6q-57 -14 -112.5 -27.5t-113.5 -24.5q-25 -5 -51 -5l-35 3q-43 6 -84 27q-67 40 -67 111q0 13 2 28zM440 1283q2 52 23 106q8 23 19.5 42t25.5 37q33 38 76 44q7 1 15 1l71 -22q57 -35 90 -100q55 -99 55 -232q0 -41 -9 -85 t-36 -85q-22 -35 -52 -57q-25 -18 -60 -18q-6 0 -13 1q-29 4 -51.5 16.5t-40.5 31.5q-47 45 -70.5 99t-33.5 116q-9 46 -9 91v14zM893 1137q4 70 26.5 140.5t75.5 131.5q16 18 37 34.5t43 26.5q33 19 64 19q14 0 27 -4q44 -12 71 -60q33 -49 39 -106q3 -31 3 -60 q0 -167 -110 -292q-33 -33 -77 -56q-28 -13 -54 -13q-15 0 -29 4q-40 11 -69 50t-38 83.5t-9 101.5zM1168 684q8 51 28.5 99t51 89t71.5 68q49 32 96 32h9q52 -3 85 -44q29 -33 38.5 -72t11.5 -86q-6 -84 -40 -158.5t-112 -128.5q-39 -29 -81 -35q-7 -1 -14 -1q-35 0 -71 24 q-31 20 -47 50t-23 65q-6 27 -6 55q0 21 3 43z" />
<glyph unicode="S" horiz-adv-x="1597" d="M111 354v666q20 31 47.5 38t57.5 7t60.5 -2t59.5 10q0 61 1 123v24q0 49 -3 97q-1 10 -1 19q1 54 21 92q24 45 82 71h738q62 -29 84 -76q19 -40 19 -93q0 -9 -1 -19q-3 -47 -3 -96v-25q1 -62 1 -127h56.5t49.5 2h13q28 0 53 -7q31 -9 53 -38v-666q-25 -23 -51.5 -29 t-54 -6t-56 2.5t-59.5 0.5v276h-950v-279q-29 4 -58.5 2t-57.5 -2t-53 6t-48 29zM421 1136q1 -108 1 -221h766v221.5t-2 219.5q0 31 -20.5 47t-49.5 16q-158 2 -312.5 2h-311.5q-31 -2 -49.5 -19.5t-18.5 -45.5q-3 -89 -3 -176v-44zM427 282q1 108 1 218h754q0 -100 2 -196 q1 -32 1 -65q0 -64 -3 -128q-2 -29 -12.5 -54.5t-20.5 -52.5h-688q-10 16 -20.5 29.5t-12.5 29.5q-1 74 -1 146v73z" />
<glyph unicode="T" horiz-adv-x="2023" d="M133 795v440q27 61 73 86q41 22 97 22h14q233 -1 464 -1h231q344 1 694 1q51 0 85 -8t53.5 -28.5t28.5 -55t9 -86.5v-317q-2 -82 -39 -119t-121 -39h-141q0 -47 1 -92v-18q0 -36 -3 -72q-4 -29 -15.5 -59.5t-29.5 -51.5q-84 -92 -168 -177t-172 -171q-18 -18 -45 -29.5 t-51 -13.5q-94 -3 -186 -3h-46q-114 1 -231 1q-94 2 -145.5 53.5t-51.5 147.5q-1 38 -1 76v37q1 56 1 114v29.5t4 28t14.5 19.5t30.5 5q12 0 25.5 -27.5t15.5 -50.5q3 -39 3 -78q0 -20 -1 -40q-1 -29 -1 -58.5t1 -58.5q0 -43 20.5 -73t67.5 -30q89 -3 179 -3h45q112 1 229 1 v114.5t2 111.5q0 203 205 204h205q0 78 3 152q1 20 1 40q0 53 -6 105q-4 51 -42 77t-89 28q-194 1 -387.5 1t-387.5 -1q-66 -2 -100.5 -42t-38.5 -106q-2 -20 -1 -41.5t1 -44.5q-45 0 -88 -4q-17 -2 -34 -2q-25 0 -49 4q-40 6 -73.5 28.5t-58.5 74.5zM248 1171q0 -15 17 -34 q19 -21 44 -54q23 35 41.5 55.5t14.5 37.5q-2 16 -22.5 36.5t-37.5 20.5q-15 -3 -35 -23q-22 -22 -22 -39zM438 1178q16 -16 29.5 -37t30.5 -25q16 -2 37.5 15t56.5 40q-33 23 -52.5 43.5t-35.5 18.5q-18 -2 -33.5 -21.5t-32.5 -33.5zM465 1413q27 20 53.5 40t54.5 40h865 q31 -18 60.5 -37.5t60.5 -38.5q-4 -4 -5.5 -10t-5.5 -10h-1075q-6 8 -8 16zM629 438q16 16 68.5 25.5t113.5 9.5t118.5 -8t84.5 -27h-385zM635 567v23h360q2 -9 2 -23h-362zM635 690v33h362q0 -18 2 -29q-77 -8 -152 -8h-30q-90 2 -182 4zM1163 262q2 -40 2 -69 q59 57 124 117.5t132 121.5q-41 0 -83 1h-28q-28 0 -55 -1q-84 -4 -90 -84q-3 -30 -3 -58q0 -14 1 -28z" />
<glyph unicode="U" horiz-adv-x="1705" d="M125 639v600q18 2 37.5 3t42.5 3v254h1300q0 -49 1 -97v-19q0 -38 -3 -76q-2 -39 11.5 -58.5t56.5 -11.5q4 0 11 -1t17 -3v-57q0 -121 -1 -239v-39q0 -99 4 -200v-9q0 -33 -14 -45q-16 -13 -52 -9q-27 2 -52.5 1t-51.5 -1q-27 0 -41.5 -1t-20.5 -7t-7 -20.5t-1 -39.5 v-497v-66h-1008q0 16 -1 30.5t-1 28.5q0 131 -1 261v88q0 88 1 176q0 29 -10 41t-41 10q-29 -1 -57 -1h-29q-43 1 -90 1zM196 780v-5q0 -17 6 -25t30 -8h19q22 0 58 -1q27 0 36 11.5t7 35.5q-1 23 -1 47v24q1 36 1 73h1012v-191h149v389h-1316q0 -72 -1 -141v-46 q0 -46 1 -93q0 -48 -1 -70zM315 1274h1084q2 12 3 23.5t1 21.5q0 35 -1 51t-7 22.5t-21.5 6.5h-48.5h-909q-43 0 -66 -2q-24 -1 -34 -13q-9 -10 -8 -33q0 -21 7 -77zM453 137q0 -31 12 -39t39 -8h708q10 0 21 1t27 3q0 178 -2 349v114q0 115 2 231v9q0 27 -10 37 q-12 12 -48 12q-117 -1 -234 -1h-117q-175 1 -351 3q-29 0 -38 -11.5t-9 -37.5q1 -166 1 -331.5t-1 -330.5zM528 147v66h656v-66h-656zM528 293v63h658v-63h-658zM528 580v65h658v-65h-658zM528 721v70h58h549q45 1 51 -9q2 -4 2 -13q0 -16 -6 -48h-654zM530 436v68h54 q139 0 276 -1t277 -1q43 0 49 -10q2 -4 2 -13q0 -15 -6 -43h-652z" />
<glyph unicode="V" horiz-adv-x="1370" d="M137 231v29v596q0 25 19 43q35 35 75.5 59.5t92.5 28.5h24v-233h699v231q11 1 21 1q30 0 54 -8q34 -11 66 -32q0 -2 2 -2q40 -26 56 -58q15 -29 14 -71v-10q-4 -120 -4 -240v-31q0 -136 1 -272v-29h-219v259h-680v-261h-221zM391 803v192q153 27 307 28h11q148 0 297 -28 v-192h-615zM428 1047v24v320q0 16 14 34q16 18 33 38t39 30q18 8 37 8q5 0 11 -1q26 -3 52 -3h322h27v-450q-134 20 -267.5 20t-267.5 -20zM434 6v412h529v-412h-529zM449 1411h63v64zM473 170h463v6h-463v-6zM473 252h461v4h-461v-4zM473 293h463v4h-463v-4zM475 211h461 l-2 4h-459v-4z" />
<glyph unicode="&#x2000;" horiz-adv-x="756" />
<glyph unicode="&#x2001;" horiz-adv-x="1513" />
<glyph unicode="&#x2002;" horiz-adv-x="756" />
<glyph unicode="&#x2003;" horiz-adv-x="1513" />
<glyph unicode="&#x2004;" horiz-adv-x="504" />
<glyph unicode="&#x2005;" horiz-adv-x="378" />
<glyph unicode="&#x2006;" horiz-adv-x="252" />
<glyph unicode="&#x2007;" horiz-adv-x="252" />
<glyph unicode="&#x2008;" horiz-adv-x="189" />
<glyph unicode="&#x2009;" horiz-adv-x="302" />
<glyph unicode="&#x200a;" horiz-adv-x="84" />
<glyph unicode="&#x202f;" horiz-adv-x="302" />
<glyph unicode="&#x205f;" horiz-adv-x="378" />
<glyph unicode="&#xe000;" horiz-adv-x="1024" d="M0 0z" />
</font>
</defs>
</svg>
